Vive l'alliance Vikings ! Index du Forum
S’enregistrerRechercherFAQMembresGroupesConnexion
[HQ] 1080 Black Sails S02E06

 
Répondre au sujet    Vive l'alliance Vikings ! Index du Forum » les vikings en force sur Antares » Demande d'accès Sujet précédent
Sujet suivant
[HQ] 1080 Black Sails S02E06
Auteur Message
valquyv


Hors ligne

Inscrit le: 16 Avr 2016
Messages: 107
Localisation: Roma

Message [HQ] 1080 Black Sails S02E06 Répondre en citant



1080 Black Sails S02E06 > bit.ly/1t32b9l







1080 Black Sails S02E06


10cf746e54
Gf n zippy have been doin this a lot lately Reply jason56d says: March 5, 2015 at 10:47 am thanks as always bigshamu Reply jason56d says: March 5, 2015 at 8:39 am Thanks for this, but&. Black Sails S02E06 1080p HDTV x264-BATV [SNEAkY] Report Torrent Category TV Type HD Language English Total size 3.46 GB Uploaded By SneaKyMK Downloads 449 Last checked 3 days ago Date uploaded 1 year ago Seeders 0 Leechers 0 Magnet Download Play Now (Stream) Torrent Download Direct Download 80% March 1, 2015, 3:00 am Black Sails 2x06 XIV. Seeds Peers Size Added . Verified. torrent name size files age seed leech 10 Black Sails S02E10 720p HDTV x264-IMMERSE[rarbg] Posted by Chief.Mokum in TV 1.17 GB 3 1year 8 2 7 Black Sails S02E01 IX 1080p WEB-DL DD5 1 H 264-BS[rarbg] Posted by Chief.Mokum in TV 2.07 GB 3 1year 6 3 16 Black Sails S02E05 720p HDTV X264-DIMENSION[rarbg] Posted by Chief.Mokum in TV 1.16 GB 3 1year 6 2 14 Black Sails S02E07 INTERNAL 720p HDTV x264-BATV[rarbg] Posted by kikAssess in TV 1.26 GB 3 1year 7 0 10 Black Sails S02E03 720p HDTV x264-KILLERS[rarbg] Posted by Chief.Mokum in TV 1.28 GB 3 1year 5 0 . Flint breaks a promise. View all Black Sails episodes Episode title: XIV. Description MediaInfo Video ID : 1 Format : AVC Format/Info : Advanced Video Codec Format profile : [emailprotected] Format settings, CABAC : Yes Format settings, ReFrames : 4 frames Codec ID : VMPEG4/ISO/AVC Duration : 57mn 48s Bit rate : 5 033 Kbps Width : 1 908 pixels Height : 1 068 pixels Display aspect ratio : 16:9 Frame rate mode : Constant Frame rate : 23.976 fps Color space : YUV Chroma subsampling : 4:2:0 Bit depth : 8 bits Scan type : Progressive Bits/(Pixel*Frame) : 0.103 Stream size : 2.03 GiB (91%) Language : English Default : Yes Forced : No Color primaries : BT.709 Transfer characteristics : BT.709 Matrix coefficients : BT.709 Color range : Limited Audio ID : 2 Format : AC-3 Format/Info : Audio Coding 3 Mode extension : CM (complete main) Format settings, Endianness : Big Codec ID : AAC3 Duration : 57mn 48s Bit rate mode : Constant Bit rate : 384 Kbps Channel(s) : 6 channels Channel positions : Front: L C R, Side: L R, LFE Sampling rate : 48.0 KHz Bit depth : 16 bits Compression mode : Lossy Stream size : 159 MiB (7%) Language : English Default : Yes Forced : No Text ID : 3 Format : UTF-8 Codec ID : STEXT/UTF8 Codec ID/Info : UTF-8 Plain Text Title : CC Language : English Default : No Forced : No .

2.23 GB 253F28269EE45610EB522C5D226864E93A97C357 42 10/1010/1010/10 bbcode. TAGS: Black Sails POSTED IN: Single Link TV 1080p TV 720p TV Shows . Penny Dreadful S03E05 HDTV x264-FLEET[rartv] Series - Misc , Quality: Audio 9/10 - Video 9/10 253.32 MB 4540 417 2 days 1 day. Gamefront Zippyshare 200MB Interchangeable. Gf n zippy have been doin this a lot lately Reply jason56d says: March 5, 2015 at 10:47 am thanks as always bigshamu Reply Leave a Reply Cancel reply Name (Required) Email (Required) .. All Language English Arabic Croatian Dutch French Greek German Norwegian Spanish Swedish . I + II (2012) [24-192 HD FLAC] . Latest queries Kink BREE London has fallen GGG suck lesbians princess leia Tom Waits the walking dead season 5 deutsch Dancing Cheek To Cheek An Intimate History Of Dance the walking dead s05 Alexa Tomas fick Assassin s Creed TINA HOT 1001 American Guns S02 hand job dazed . Infohash : DFE9ADAAECBFCBE8D2AF1ED60F39B55D12E18414 . Uploaded Rapidgator Go4up Jheberg Filefactory Filecore 1.5 GB Interchangeable Links Gamefront Zippyshare 200MB Interchangeable.

chicago pd s01e02who is fancysleepy 720 s02e08the man from nowherethe record keeperusher lil jon yeahbrazzers isabel santosdoor to door nlcrack windows 7 probirthday katy perry



Jeu 2 Juin - 07:47 (2016)
Publicité






Message Publicité
PublicitéSupprimer les publicités ?

Jeu 2 Juin - 07:47 (2016)
Montrer les messages depuis:    
Répondre au sujet    Vive l'alliance Vikings ! Index du Forum » les vikings en force sur Antares » Demande d'accès Toutes les heures sont au format GMT + 1 Heure
Page 1 sur 1

 
Sauter vers: 

Index | Panneau d’administration | Creer un forum | Forum gratuit d’entraide | Annuaire des forums gratuits | Signaler une violation | Conditions générales d'utilisation
Powered by phpBB © 2001, 2005 phpBB Group
Design by Freestyle XL / Music Lyrics.Traduction par : phpBB-fr.com